ремонт сотовых телефонов своими руками 2013 видеокурс

 

 

 

 

Ремонт сотовых телефонов (2013) WEB-DLRip. Видеокурс Ремонт мобильных телефонов с нуля. Секреты создания прибыльного бизнеса (2011). Сантехнические работы своими руками. Уроки домашнего мастера CD (видеокурс). Главная » 2014 » Декабрь » 3 » Эффективный ремонт сотовых телефонов своими руками (2013) Видеокурс.Это видеокурс, который помогает решить все сложные задачи по ремонту сотовых телефонов, не важно новичок Вы или уже профи. Видеокурс «Эффективный ремонт сотовых телефонов, своими руками» вы всегда сможете отмотать и просмотреть вновь (в любое время).Апрель 2013. Декабрь 2012. Скачать бесплатно и быстро » Музыка » Клипы » Эффективный ремонт сотовых телефонов своими руками (2013) Видеокурс.Цель данного видеокурса — научить Вас, эффективно ремонтировать любые сотовые телефоны, своими руками. Видео » Обучающее видео . Эффективный ремонт сотовых телефонов своими руками (2013).Это видеокурс, который помогает решить все сложные задачи по ремонту сотовых телефонов, не важно новичок Вы или уже профи. Добавлено: 30 авг 2015, 19:16. Роман Холодов | Эффективный ремонт сотовых телефонов своими руками (2013) [DVDRip].Цель данного видеокурса — научить Вас, эффективно ремонтировать любые сотовые телефоны, своими руками. Если Вы давно мечтали научиться ремонтировать сотовые телефоны, но стоящей методики так и не нашли, то эксклюзивный практический видеокурс «Эффективный ремонт сотовых телефонов своими руками» по ремонту мобильных от настоящего практика — для Вас.

Главная » 2013 » Сентябрь » 4 » Видеокурс «Эффективный ремонт сотовых телефонов своими руками».Если Вы хотите научиться ремонтировать телефоны, то Вы не найдете обучающего пособия лучше, чем этот обучающий видеокурс. Изучив видеокурс «Эффективный ремонт сотовых телефонов своими руками»: Вы научитесь применять особые техники ремонта, которые были наработаныДетали торрента: Название: Роман Холодов | Эффективный ремонт сотовых телефонов своими руками (2013) [DVDRip]. На момент добавления новости Эффективный ремонт сотовых телефонов своими руками (2013) Видеокурс все ссылки были активны . В результате, очень вероятно, что вы научитесь ремонтировать любые сотовые телефоны своими руками. Видеокурс поможет решить все сложные задачи по ремонту сотовых телефонов, независимо от того, новичок Вы или уже профи. Ремонт сотовых телефонов. Вам захотелось ремонтировать сотовые, та сказать, телефоны, к сожалению можно наткнуться на проблемуРемонт сотовых телефонов своими руками. Если говорить за мобильные гаджеты ситуация напрочь иная.Сентябрь 2013. Получите сегодня пошаговую систему по ремонту любого телефона! Изучив видеокурс «Эффективный ремонт сотовых телефонов своими руками»: Вы научитесь применять особые техники ремонта, которые были наработаны годами SkyBack » Видео уроки » Эффективный ремонт сотовых телефонов своими руками (2013) Видеокурс.Цель данного видеокурса — научить Вас, эффективно ремонтировать любые сотовые телефоны, своими руками. Если вы обнаружили битые ссылки для скачивания или у вас возникли какие-то другие вопросы по тому, как скачать Эффективный ремонт сотовых телефонов своими руками (2013) Видеокурс без смс и регистрации Если Вы давно мечтали научиться ремонтировать сотовые телефоны, но стоящей методики так и не нашли, то эксклюзивный практический видеокурс «Эффективный ремонт сотовых телефонов своими руками» по ремонту мобильных от настоящего практика — для Вас.

Скачать видеокурсы и видеоуроки: Эффективный ремонт сотовых телефонов своими руками (2013) бесплатно и без регистрации.Цель данного видеокурса — научить Вас, эффективно ремонтировать любые сотовые телефоны, своими руками. Nemo-Crack.org » Фильмы » Обучающее видео » Эффективный ремонт сотовых телефонов своими руками (2013) Видеокурс.Цель данного видеокурса — научить Вас, эффективно ремонтировать любые сотовые телефоны, своими руками. 21-03-2013, 17:59 От: kleinberg Посмотрели: 1950.Курс .Благодаря этому видеокурсу, Вы станете обладать базовыми знаниями по теме - ремонт сотовых телефонов на дому своими руками, и сможете налаживать свыше 60 всех аппаратов. Вещи своими руками (2013) Рейтинг: 3,1 из 10.01 июн 2013. Ремонт мобильных телефонов с нуля (Скрябиков Евгений) [2011, Видеокурс, DVD5].

Описание: Наверное не для кого не секрет, что ремонт сотовых и мобильных телефонов в наш цифровой век является очень Главная » Обучение / Видео уроки » Эффективный ремонт сотовых телефонов своими руками (2013).Это видеокурс, который помогает решить все сложные задачи по ремонту сотовых телефонов, не важно новичок Вы или уже профи. Все файлообменники примерно одинаковы,так что эти два примера вам дадут понять как Скачать бесплатно Эффективный ремонт сотовых телефонов своими руками (2013) Видеокурс Главная » 2014 » Декабрь » 3 » Эффективный ремонт сотовых телефонов своими руками (2013) Видеокурс.Это видеокурс, который помогает решить все сложные задачи по ремонту сотовых телефонов, не важно новичок Вы или уже профи. Эффективный ремонт сотовых телефонов своими руками (2013). Если Вы давно мечтали научиться ремонтировать сотовые телефоны, но стоящей методики так и не нашли, то этот эксклюзивный практический видеокурс по ремонту мобильных от настоящего практика Если Вы давно мечтали научиться ремонтировать сотовые телефоны, но стоящей методики так и не нашли, то эксклюзивный практический видеокурс «Эффективный ремонт сотовых телефонов своими руками» по ремонту мобильных от настоящего практика — для Вас. Изучив видеокурс «Эффективный ремонт сотовых телефонов своими руками»: Вы научитесь применять особые техники ремонта, которые были наработаны годами Вы научитесь ремонтировать самые сложные телефоны Вы научитесь Это видеокурс, который помогает решить все сложные задачи по ремонту сотовых телефонов, не важно новичок Вы или уже профи.payala. Другие торренты данного раздела: Скачать видеокурс Камины своими руками (2013). Изучив видеокурс «Эффективный ремонт сотовых телефонов своими руками»Progressive Bits/(PixelFrame) : 0.347 Stream size : 102 MiB (94) Language : English Encoded date : UTC 2013-04-12 19:32:43 Tagged date : UTC. Курс Вам поможет, сэкономить более 50 времени на поиски проблем, связанных с ремонтом! Изучив видеокурс «Эффективный ремонт сотовых телефонов своими руками»: Вы научитесь применять особые техники ремонта, которые были наработаны годами С этой страницы вы можете скачать Эффективный ремонт сотовых телефонов своими руками (2013) Видеокурс. Этот файл размещен для скачивания не через торрент, а через файловые обменники. Информация о курсе Название: Эффективный ремонт сотовых телефонов своими руками Автор: Холодов Роман Год выхода: 2014 Жанр: Видеокурс Выпущено: Россия Продолжительность: 7 часов. Скачать видеокурсы и видеоуроки: эффективный ремонт сотовых телефонов своими руками.Желаете овладеть познаниями, размельчив ее, 14 ноя 2014. Как Его Чинить, сотовых телефонов своими руками (2013. Skachat-Warez.ru » Обучающее видео » Эффективный ремонт сотовых телефонов своими руками (2013) Видеокурс.Это видеокурс, который помогает решить все сложные задачи по ремонту сотовых телефонов, не важно новичок Вы или уже профи.телефонов своими руками Автор: Роман Холодов Режиссер: Роман Холодов Издательство: "Роман Холодов" Страна: Россия Год выпуска: 2013 Жанрсотовые телефоны, но стоящей методики так и не нашли, то эксклюзивный практический видеокурс «Эффективный ремонт Курс Вам поможет, сэкономить более 50 времени на поиски проблем, связанных с ремонтом! Изучив видеокурс «Эффективный ремонт сотовых телефонов своими руками»: Вы научитесь применять особые техники ремонта, которые были наработаны годамиЭффективный ремонт сотовых телефонов своими руками (2013) бесплатно.Это видеокурс, который помогает решить все сложные задачи по ремонту сотовыхСодержание видеокурса «Эффективный ремонт сотовых телефонов своими руками»: Изучение Если Вы давно мечтали научиться ремонтировать сотовые телефоны, но стоящей методики так и не нашли, то эксклюзивный практический видеокурс «Эффективный ремонт сотовых телефонов своими руками. Изучив видеокурс Эффективный ремонт сотовых телефонов своими руками: Вы научитесь применять особые техники ремонта, которые былиРоман Масленников | СуперКонсалтинг-2: PR и маркетинг в сфере В2В-услуг ( 2013) [FB2] скачать через торрент бесплатно. Изучив видеокурс «Эффективный ремонт сотовых телефонов своими руками»Progressive Bits/(PixelFrame) : 0.347 Stream size : 102 MiB (94) Language : English Encoded date : UTC 2013-04-12 19:32:43 Tagged date : UTC. Красивый дизайн веб сайтов » Уроки и видеоуроки » Эффективный ремонт сотовых телефонов своими руками (2013).Цель данного видеокурса — научить Вас, эффективно ремонтировать любые сотовые телефоны, своими руками. Не забудьте написать отзыв о сайте. Попав на эту страницу вы, скорее всего, хотите скачать файл Эффективный ремонт сотовых телефонов своими руками (2013) Видеокурс бесплатно. Надеемся, это у вас получится. Видеокурс эффективный ремонт сотовых телефонов. Как в последствие Гоголь в Ревизоре, имеющего их гражданство РФ.Вы можете Скачать бесплатно Эффективный ремонт сотовых телефонов своими руками (2013. Цель данного видеокурса — научить Вас, эффективно ремонтировать любые сотовые телефоны, своими руками.Важное объявление для всех пользователей 689.RU. Советуем Эффективный ремонт сотовых телефонов своими руками (2013) скачать бесплатно на Ремонт сотовых телефонов (2013) WEB-DLRip. Видеокурс Ремонт мобильных телефонов с нуля. Секреты создания прибыльного Сантехнические работы своими руками. Уроки домашнего мастера CD (видеокур Курс Вам поможет, сэкономить более 50 времени на поиски проблем, связанных с ремонтом! Изучив видеокурс «Эффективный ремонт сотовых телефонов своими руками»: Вы научитесь применять особые техники ремонта, которые были наработаны годами Ежели Вы давно мечтали обучиться чинить сотовые телефоны, хотя стоящей методики так и не отыскали, то данное видео пособие «Эффективный ремонт сотовых телефонов своими руками» по ремонту мобильных от истинного практика — для Вас. Курс Вам поможет, сэкономить более 50 времени на поиски проблем, связанных с ремонтом! Изучив видеокурс «Эффективный ремонт сотовых телефонов своими руками»: Вы научитесь применять особые техники ремонта, которые были наработаны годами Ремонт сотовых телефонов (2013) WEB-DLRip. Видеокурс Ремонт мобильных телефонов с нуля. Секреты создания прибыльного Сантехнические работы своими руками. Уроки домашнего мастера CD (видеокур Курс по ремонту сотовых телефонов. Все самое необходимое в ремонте сотовых телефонов, от механического инструмента, до сложных измерительных приборов. Пайка простейших элементов поверхностного монтажа. Если Вы давно мечтали научиться ремонтировать сотовые телефоны, но стоящей методикиКто есть кто у нас во ФлеймеLaserdance / Greatest Hits Remixes (2 CD)

Популярное: